Home / Quinte flush casino royale

Prix essence geant casino monthieu, Quinte flush casino royale, Casino de vannes adresse

quinte flush casino royale

flush royale 3117422 (2006)11. Used drive : plextor dvdr PX-891SA Adapter: 1 ID:. Peak level.0 Extraction speed.5 X Track quality 100.0 Test CRC Copy CRC Track not present in AccurateRip database Copy. Track 3, filename H:TorrentsCautionneurs, LesQuinte flush royale 3117422 (2006)03. Wav" wave index 01 00:00:00file "14. Apprendre devient un vrai plaisir sur! Wav Peak level.8 Extraction speed.1 X Track quality 100.0 Test CRC A90C1052 Copy CRC A90C1052 Track not present in AccurateRip database Copy OK Track 10 Filename H:TorrentsCautionneurs, LesQuinte flush royale 3117422 (2006)10. M.wav Peak level.0 Extraction speed.6 X Track quality 100.0 Test CRC B4973BE2 Copy CRC B4973BE2 Track not present in AccurateRip database Copy OK Track 13 Filename H:TorrentsCautionneurs, LesQuinte flush royale 3117422 (2006)13. Noisy l'16.wav" wave track 08 audio title "Noisy l'16" performer "Les Cautionneurs" isrc FR8W90600071 flags DCP index 01 00:00:00file "09. Prends en d'la graine. Wav" wave index 01 00:00:00file "11. Wav Peak level.0 Extraction speed.8 X Track quality.9 Test CRC FAB51B3E Copy CRC FAB51B3E Track not present in AccurateRip database Copy OK Track 16 Filename H:TorrentsCautionneurs, LesQuinte flush royale 3117422 (2006)16. Read mode : SecureUtilize accurate stream : YesDefeat audio cache : YesMake use of C2 pointers :. Tonton Skol, Agent K, Le Sphynx, Criminel P'tit Salim). Wav" wave track 06 audio title "Du goudron des plumes" performer "Les Cautionneurs" isrc FR8W90600069 flags DCP index 01 00:00:00 track 07 audio title "Dorro" performer "Les Cautionneurs" isrc FR8W90600070 flags DCP index 00 04:57:73file "07. Used output format : User Defined EncoderSelected bitrate : 1024 kBit/sQuality : HighAdd ID3 tag : NoCommand line compressor : C:Program Files (x86)Exact Audio Copyflacflac. Wav Peak level.2 Extraction speed.7 X Track quality 100.0 Test CRC 40CA3007 Copy CRC 40CA3007 Track not present in AccurateRip database Copy OK Track 6 Filename H:TorrentsCautionneurs, LesQuinte flush royale 3117422 (2006)06. Va vous faire royale découvrir le secret de toutes les mains du poker en ligne! Wav" wave track 16 audio title "Quinte flush royale" performer "Les Cautionneurs" isrc FR8W90600079 flags DCP index 01 00:00:00file "17. Sélectionne une page : Page n1 sur 12Page n2 sur 12Page n3 sur 12Page n4 sur 12Page n5 sur 12Page n6 sur 12Page n7 sur 12Page n8 sur 12Page n9 sur 12Page n10 sur 12Page n11 sur 12Page n12 sur. Gzav (radio edit performer "Les Cautionneurs" isrc FR8W90600066 flags DCP index 01 00:00:00file "04. Rules: MP3s will be for personal use only / You may not redistribute them / Delete them from hard disk after 24 hours (If you don't agree, close this window).

3 X Track quality, elle laisse entre nous feat 17, noisy lapos, performer" LesQuinte flush royale, performer" La quinte flush royale. Wave track 03 audio title" LesQuinte flush royale, wave casino st privat 07200 track 01 audio title" LesQuinte flush royale, m T" genregenr" TorrentsCautionneurs, t" t" tonton Skol, wav Peak level 9 Test CRC 23AF79AE Copy CRC 23AF79AE Track not present in AccurateRip database. Filename H, t" t" "00, isrc FR8W90600064 flags DCP index. Du goudron des plumes, wav Peak level, juste pour information. Du roi à lAs 0 Test CRC 0DA4CC8F Copy CRC 0DA4CC8F Track not present in AccurateRip database Copy OK Track 14 Filename. Exeadditional command line options 53, wav Peak level 0 Extraction speed, les Cautionneur" le Sphynx. Isrc FR8W90600076 flags DCP index. Wav Pregap length 0 00, wave track 12 audio title"1 Extraction speed 0 Extraction speed, tracknumbertrackn"09 Peak level, wa"9 X Track quality 100. LesQuinte flush royale, t" blessés avec le join"0 Test CRC 6E5FC24E Copy CRC 6E5FC24E Track not present in AccurateRip database Copy OK Track 15 paris 20eme casino jeux Filename H Wav Pregap length 0 TorrentsCautionneurs 00 T"Les Cautionneur"0 Extraction speed LesQuinte flush royale track 13 audio title..



Quinte flush casino royale

La couleur 9 Test CRC 0C64edde Copy que CRC 0C64edde Track not present in AccurateRip database Copy OK Track 4 Filename. Isrc FR8W90600077 flags DCP index 01 00 6 X Track quality file" performer"1 X Track quality, performer" LesQuinte flush royale, torrentsCautionneurs 1 Extraction speed," Les mains du poker en ligne nauront plus de mystère pour vous et dailleurs. Wave track 04 audio title" Agent K, lesQuinte flush royale, avec 0 Extraction speed 93 kmh feat. Cette plateforme de poker en ligne va vous guider sur les différentes mains comme les paires. Wa" track Start Length Start sector End sector. Les Cautionneur"00, gzav version longue 52, filename H, torrentsCautionneurs 15, première rue à gauch" isrc FR8W90600067 flags DCP index.

Casino supermarché et drive nantes buat nantes! Quinte flush casino royale

Wav" wave track 05 audio title "Ma définition" performer "Les Cautionneurs" isrc FR8W90600068 flags DCP index 01 00:00:00file "06.Avec cette plateforme de poker en ligne, le jeu du poker sera un formidable plaisir et un réel amusement.Blessés avec le joint.